91听歌网,高品质 真音乐 为了烧友而存在

共找到 51个 相关音乐 默认排序 按人气 按下载 按大小
  • 切换显示方式

精品发烧音乐库

  • 龙飘飘1997-我爱你胜过自己[风行唱片][WAV整轨]...

    风格: 格式:WAV

    曲目:专辑曲目:01.我愛你勝過自己 02.不要含淚到日落 03.緣(試聽) 04.情人 05.你總是相信你所聽到的 06.謊言 07.愛情變了樣 08.今生的知己 09.聽我細訴 10.如何說起 11.算了吧 12.往事

    资源级别 10积分 人气 2153 大小 292MB

  • 龙飘飘1995-相思夜夜深[引进版][WAV整轨] ...

    风格: 格式:WAV

    曲目:专辑曲目:01.夜来香 02.谁能禁止我的爱 03.潇潇夜雨 04.相思夜夜深 05.故乡的呼唤 06.你的爱情在那里 07.把我忘了吧 08.让我慢慢告诉你 09.唤不回的梦 10.谎言 11.缘 12.再来一个

    资源级别 10积分 人气 1321 大小 253MB

  • 龙飘飘1993-龙腔雅韵珍藏经典4[百代唱片][WAV整轨...

    风格: 格式:WAV

    曲目:专辑曲目: TRACK 01 AUDIO TITLE "通通通" INDEX 01 00:00:00 TRACK 02 AUDIO TITLE "春光好" INDEX 01 03:35:20 TRACK 03 AUDIO TITLE "一封情书" INDEX 01 05:53:20 TRACK 04 AUDIO TITLE "常拌你左右" INDEX 01 09:14:10 TRACK 05 AUDIO ...

    资源级别 10积分 人气 2153 大小 413MB

  • 龙飘飘2003-经典回顾系列新年乐[引进版][WAV整轨]...

    风格: 格式:WAV

    曲目:专辑曲目:01.新年乐 02.迎新年 03.恭喜大家迎新年 04.大家恭喜 05.喜临门 06.初一来烧香 07.新年新愿 08.恭喜发财发大财 09.人财两旺富贵全 10.百万富翁你来当 11.接财神 12.恭喜发财

    资源级别 10积分 人气 2301 大小 313MB

  • 龙飘飘1995-为何你不来[引进版][WAV整轨]...

    风格: 格式:WAV

    曲目:专辑曲目:1.是你是你 2.心上人 3.相思树 4.惜别的海岸 5.让风儿告诉我 6.昨夜梦见你 7.有了你 8.流浪的星 9.沙滩往事 10.说声对不起 11.慕情 12.为何你不来 13.多少柔情多少泪 14.缘的脚步 15.一缕情丝一场梦...

    资源级别 10积分 人气 2041 大小 315MB

  • 快乐巨星-百万畅销曲VOL.1烟雨濛濛2CD[WAV+CUE] ...

    风格: 格式:WAV

    曲目:专辑曲目:Disc 1 01 濛濛烟雨 龙飘飘 02 爲何那么傻 谢采妘 03 明天是否爱我 黄贝玲 04 相信我 杨林 05 轻轻说爱我 徐玮 06 你潇洒我漂亮 成凤 07 耐心等待 钱幽兰 08 寂寞 杨峻荣 09 门前杨柳迎风摆 黄丽卿 10 后悔 龙飘飘 11 再一个明天 杨峻荣 12 苦酒咖啡 徐玮 Disc 2 1 富...

    资源级别 10积分 人气 2250 大小 426MB

  • [ABC]群星《模拟至尊(6N纯银镀膜)》正版CD低速原...

    风格: 格式:WAV

    曲目:专辑曲目:01 哭砂 黄莺莺 02 我想有个家 潘美辰 03 泪的小花 青山 04 野百合也有春天 潘越云 05 粉红色的回忆 韩宝仪 06 惜别的海岸 龙飘飘 07 遥远寄相思 费玉清 08 橄榄树 齐豫 09 想你的时候 千百惠 10 再回首 姜育恒 11 海上花 甄妮 12 爱的代价 张...

    资源级别 10积分 人气 1001 大小 571MB

  • 龙飘飘.1993-放下感情.潇洒人生【EMI百代】【WAV+...

    风格: 格式:WAV

    曲目:专辑曲目:01.放下感情(原曲:感情放一边) 02.潇洒人生(原曲:沉默是金) 03.风采红尘 04.其实我在想你 05.谁比我更爱你(原曲:Can,t Help Falling InLove) 06.如是依旧 07.伤痕 08.曾经拥有 09.冬天的情泪 10.期待你的爱...

    资源级别 10积分 人气 2129 大小 281MB

  • 龙飘飘1998-旧情绵绵2CD[乡城唱片][WAV整轨]...

    风格: 格式:WAV

    曲目:专辑曲目:CD1: 01. 像雾又像花 02. 白云 03. 酒醒梦已残 04. 最后的夜快车 05. 蔓莉 06. 梨山痴情花 07. 你曾经爱过我 08. 弥渡山歌 09. 忆往事 10. 不得了 11. 忘记你不容易 12. 白云下的牧歌 13. 风从那里来 14. 追 15. 海角天涯 16. 春泪 17. 梦中人 18. 你最美丽你最亲 19. ...

    资源级别 10积分 人气 1692 大小 1.25G

  • 群星《甜歌醉美人》2CD[WAV+CUE]

    风格: 格式:WAV

    曲目:专辑曲目:CD1 01.粉红色的回忆--韩宝仪 02.爱你在心口难开--凤飞飞 03.昨夜星辰--林淑容 04.舞女泪--韩宝仪 05.春风吻上我的脸--凤飞飞 06.天涯歌女--韩宝仪 07.十八姑娘一朵花--林玉英 08.茶山情歌--杨钰莹 09.蝶儿蝶儿满天飞--高胜美 10.多少柔情多少泪--凤飞飞 11.梨山痴情花-...

    资源级别 10积分 人气 739 大小 697MB

  • 24K-龙飘飘《龙腔.雅韵》3CD[正版CD低速原抓WAV+C...

    风格: 格式:WAV

    曲目:专辑曲目: CD1 01.惜别的海岸 02.昨夜星辰 03.康定情歌 04.爱情这杯酒 05.晚风 06.舞女 07.情人桥 08.感恩的心 09.梦在你怀里 10.月儿像柠檬 11.怎能再回头 12.对你怀念特别多 13.成长的岁月 14.等你回航 15.美酒加咖啡 16.往事只能回味 17.多少柔情多少泪 18.相见不如怀念 CD2...

    资源级别 10积分 人气 2339 大小 1.22G

  • 龙飘飘-金装龙飘飘-老歌经典7CD[WAV+CUE]...

    风格: 格式:WAV

    曲目:专辑曲目:金装龙飘飘 老歌经典一 01.不想你(不想伊) 02.歌迷小姐 03.请你放开我 04.梦醒不了情 05.我把爱情收回来 06.朦胧的灯光 07.夜归人 08.今宵多珍重 09.明日天涯 10.苦酒满杯 11.两相依 12.无怨也无悔 13.不再叹息 14.晚风 15.丢不了的情意 16.苦情花 金装龙飘飘 老歌经...

    资源级别 10积分 人气 559 大小 2.47G

  • 龙飘飘1991-龙腔特集4CD[快乐唱片][WAV整轨] ...

    风格: 格式:WAV

    曲目:专辑曲目:1.情人再见 2.忆往事 3.我不能没信心 4.听说你要走 5.我没抛弃你 6.春泪 7.如果没有你 8.恨海 9.无花果 10.梦 11.你曾经爱过我 12.海角天涯 13.你就这样走了 14.我实在爱着你 15.不得了 16.午夜香吻 《龙飘飘---龙腔特辑(二)》 專輯曲目: 1.出航 2.一错再错...

    资源级别 10积分 人气 1016 大小 1.55G

  • 龙飘飘-龙飘飘精选[引进版]DTS[WAV]

    风格: 格式:DTS

    曲目:专辑曲目:01.是你是你 02.心上人 03.相思树 04.惜别的海岸 05.让风儿告诉你 06.昨夜梦见你 07.有了你 08.流泪的星 09.沙滩往事 10.说声对不起 11.慕情 12.为何你不来 13.多少柔情多少泪 14.缘的脚步 15.一缕情丝一场梦...

    资源级别 10积分 人气 2120 大小 466MB

  • 《国语老歌经典第二代9-10》[WAV+CUE] ...

    风格: 格式:WAV

    曲目:专辑曲目:01.海韵 邓丽君 02.又是细雨 龙飘飘 03.相见不如怀念 杨美莲&张帝 04.梨花泪 于樱樱 05.庭院深深 刘家昌 06.不如归去 龙飘飘 07.风从那里来 万沙浪 08.母亲 尤雅 09.月满西楼 刘家昌 10.教我认识你 江淑娜 11.负心的人 姚苏蓉 12.梅兰梅兰我爱你 尤雅 13.爱在夕阳下 ...

    资源级别 10积分 人气 1776 大小 780MB

  • 《国语老歌经典第二代7-8》[WAV+CUE]

    风格: 格式:WAV

    曲目:专辑曲目:01.纯纯的爱 02.水悠悠 03.一帘幽梦 04.往日的痕迹 05.蓝色的忧郁 06.我要对你说 07.是谁唤走了你 08.是谁抢走我的爱人 09.世界真细小 10.送你一把泥土 11.你侬我侬 12.红睡莲 13.船歌 14.高山青 15.在银色的月光下 16.晚安曲 唱片名称:国语老歌经典 第二代 8 歌...

    资源级别 10积分 人气 868 大小 707MB

  • 龙飘飘《百万富翁你来当》[快乐引进版][WAV整轨] ...

    风格: 格式:WAV

    曲目:专辑曲目:01.大家恭喜 02.飄飄樂逍遙 03.百萬富翁你來當 04.喜臨門 05.新年頌 06.富貴花開迎新年 07.今年更比去年好 08.唱首新年歌(齊秦合唱) 09.人財兩旺富貴全 10.春聯賀歲 11.快樂新年 12.招財進寶財神到...

    资源级别 10积分 人气 2095 大小 374MB

  • 龙飘飘1997-龙腔贺岁年年好十二生肖通发财[百代][...

    风格: 格式:WAV

    曲目:专辑曲目:01 十二生肖通发财 02 迎春花组曲:迎春花 财神到 拜年 祝福你 新年颂献 迎春接福 恭喜恭喜 03 欢喜迎金虎 04 龙腔贺岁年年好 05 恭喜今年发大财 06 幸福在今朝 07 人人好运到 08 新年万家欢 09 甜甜蜜蜜大团圆 10 贺岁组曲:大吉大利 大富大贵大旺年 一路发 大富年 好运年...

    资源级别 10积分 人气 2072 大小 375MB

  • 龙飘飘-龙腔贺岁5CD马来西亚复刻版[WAV+CUE]...

    风格: 格式:WAV

    曲目:专辑曲目:01.组曲:同庆幸福年/财神到/大家恭喜/春天来了/招财进宝 02.龙马精神 03.春联贺岁 04.新年戴朵花 05.富贵花开迎新年 06.组曲:花好月圆/恭喜发财发大财/新年好/接财神/大地回春 07.我爱红包 08.每逢岁暮倍思亲 09.新春好预兆 10.财神的照料 专辑名称:龙腔贺岁2 祝福 歌...

    资源级别 10积分 人气 626 大小 2G

  • 龙飘飘1990-龙飘飘精选辑1[引进版][WAV整轨] ...

    风格: 格式:WAV

    曲目:专辑曲目:1.爱的诗篇 2.难忘的感觉 3.成长的岁月 4.再会吧!我的爱 5.情书 6.沙滩住事 7.别装着不相识 8.只有去寻梦 9.伤心泪儿流 10.相思的话 11.唤不回的爱 12.新娘花 13.原有的天空 14.碎梦里 15.为何你不来 16.梦儿难忘...

    资源级别 10积分 人气 1335 大小 528MB

 51    1 2 3 下一页 尾页
  • 切换显示方式

精品音乐库